Login
Username:
Password:
[Signup]
[Recover Account]


Browse Torrents

Poll


You must be logged in to view polls



Latest Torrents
Through.The.Keyhol...
- [Size: 469.50 MB]

Greys.Anatomy.S15E...
- [Size: 795.40 MB]

Greys.Anatomy.S15E...
- [Size: 797.75 MB]

Greys.Anatomy.S15E...
- [Size: 237.40 MB]

Greys.Anatomy.S15E...
- [Size: 238.43 MB]


Torrent Details For "Baazaar (2018) 720p Hindi Proper HDRip x264 AC-3 5.1 - 1.4GB ESub - MovCr"

Baazaar (2018) 720p Hindi Proper HDRip x264 AC-3 5.1 - 1.4GB ESub - MovCr

Download this torrent | Magnet Download
Health:
Seeds: 1,532
Leechers: 1,816
Completed: 2,339 
Last Checked: 12-01-2019 21:31:02
External Torrent
Update Stats



Images Host

Poster


iMDB
Title: Baazaar
Year: 2018
Runtime: 137 minutes
Votes: 103
Rating: 7.8/10
Director: Gauravv K. Chawla
Writing By: Aseem Arora,Aseem Arora,Parveez Sheikh,
Produced By: Monisha Advani,Nikkhil Advani,Mohan Bangera,Madhu Bhojwani,Hemraj Dogra,Karan Joshi,Ajay Kapoor,Satish Poddar,Ishan Saksena,Sunil Shah,Dheeraj Wadhawan,Rameshchandra Yadav,
Music: John Stewart Eduri
Cast:
Radhika Apte as Priya Rai
Saif Ali Khan as Shakun Kothari
Chitrangda Singh as Mandira Kothari
Manish Chaudhary as Rana Dasgupta
Rohan Vinod Mehra as Rizwan Ahmed
Mukesh Hariawala as Parekh
Denzil Smith as Kishore Wadhwa
Danish Husain as Dubey
Sai Gundewar as Suhas Sharma
Sonia Balani as Aamna Ahmed
Trailers:
Baazaar Trailer


Watch-Free-HD     Download

Details
Name:Baazaar (2018) 720p Hindi Proper HDRip x264 AC-3 5.1 - 1.4GB ESub - MovCr
Description:
 http://movcr.cc

Baazaar (2018) 720p Hindi Proper HDRip x264 AC-3 5.1 - 1.4GB ESub - MovCr



 http://www.imdb.com/title/tt6514196/

 


General
Unique ID                                : 179271234804445419815946195226901827972 (0x86DE62491636D11C5F5CA896F7E35184)
Complete name                            : www.MovCr.cc - Baazaar (2018) 720p Hindi Proper HDRip x264 AC-3 5.1 - 1.4GB ESub - MovCr.mkv
Format                                   : Matroska
Format version                           : Version 4 / Version 2
File size                                : 1.38 GiB
Duration                                 : 2 h 16 min
Overall bit rate                         : 1 445 kb/s
Movie name                               : www.MovCr.cc
Encoded date                             : UTC 2019-01-12 15:36:06
Writing application                      : mkvmerge v30.1.0 ('Forever And More') 64-bit
Writing library                          : libebml v1.3.6 + libmatroska v1.4.9

Video
ID                                       : 1
Format                                   : AVC
Format/Info                              : Advanced Video Codec
Format profile                           : [email protected]
Format settings                          : CABAC / 4 Ref Frames
Format settings, CABAC                   : Yes
Format settings, RefFrames               : 4 frames
Codec ID                                 : V_MPEG4/ISO/AVC
Duration                                 : 2 h 16 min
Bit rate                                 : 1 209 kb/s
Width                                    : 1 280 pixels
Height                                   : 544 pixels
Display aspect ratio                     : 2.35:1
Frame rate mode                          : Constant
Frame rate                               : 24.000 FPS
Color space                              : YUV
Chroma subsampling                       : 4:2:0
Bit depth                                : 8 bits
Scan type                                : Progressive
Bits/(Pixel*Frame)                       : 0.072
Stream size                              : 1.16 GiB (84%)
Title                                    : www.MovCr.cc
Writing library                          : x264 core 155 r2901 7d0ff22
Encoding settings                        : cabac=1 / ref=2 / deblock=1:0:0 / analyse=0x3:0x113 / me=hex / subme=6 / psy=1 / psy_rd=1.00:0.00 / mixed_ref=1 / me_range=16 / chroma_me=1 / trellis=1 / 8x8dct=1 / cqm=0 / deadzone=21,11 / fast_pskip=1 / chroma_qp_offset=-2 / threads=12 / lookahead_threads=2 / sliced_threads=0 / nr=0 / decimate=1 / interlaced=0 / bluray_compat=0 / constrained_intra=0 / bframes=3 / b_pyramid=2 / b_adapt=1 / b_bias=0 / direct=1 / weightb=1 / open_gop=0 / weightp=1 / keyint=240 / keyint_min=24 / scenecut=40 / intra_refresh=0 / rc_lookahead=30 / rc=abr / mbtree=1 / bitrate=1209 / ratetol=1.0 / qcomp=0.60 / qpmin=0 / qpmax=69 / qpstep=4 / vbv_maxrate=25000 / vbv_bufsize=25000 / nal_hrd=none / filler=0 / ip_ratio=1.40 / aq=1:1.00
Default                                  : Yes
Forced                                   : Yes
Color range                              : Limited
Color primaries                          : BT.709
Transfer characteristics                 : BT.709
Matrix coefficients                      : BT.709

Audio
ID                                       : 2
Format                                   : AC-3
Format/Info                              : Audio Coding 3
Codec ID                                 : A_AC3
Duration                                 : 2 h 16 min
Bit rate mode                            : Constant
Bit rate                                 : 224 kb/s
Channel(s)                               : 6 channels
Channel positions                        : Front: L C R, Side: L R, LFE
Sampling rate                            : 48.0 kHz
Frame rate                               : 31.250 FPS (1536 SPF)
Bit depth                                : 16 bits
Compression mode                         : Lossy
Stream size                              : 219 MiB (16%)
Title                                    : www.MovCr.cc
Language                                 : Hindi
Service kind                             : Complete Main
Default                                  : Yes
Forced                                   : Yes

Text
ID                                       : 3
Format                                   : UTF-8
Codec ID                                 : S_TEXT/UTF8
Codec ID/Info                            : UTF-8 Plain Text
Duration                                 : 2 h 11 min
Bit rate                                 : 66 b/s
Count of elements                        : 1563
Stream size                              : 64.6 KiB (0%)
Title                                    : www.MovCr.cc
Language                                 : English
Default                                  : Yes
Forced                                   : Yes



 
 
 
 
 
 
 
 
 

Category:Movies > Bollywood
Lang:Hindi
Total Size:1.38 GB
Info Hash:da0d5d8990017c35551e0122728301460bb07d11
Added By:Kingmaker
Date Added:12-01-2019 15:40:35
Downloads:1,467

Ratings:Not Yet Rated (Log in to rate it)


Tracker:
udp://tracker.coppersurfer.tk:6969/announce


File List: 


Comments

No comments still posted

Top
Copyright 2018 DownloadHD -|- Page Generated In 1.753053 secs.
-|- RSS Feed -|- Feed Info