Login
Username:
Password:
[Signup]
[Recover Account]


Browse Torrents

Poll


You must be logged in to view polls



Latest Torrents
Turbulent.2018.HDR...
- [Size: 1.34 GB]

Raat Gayi Baat Gay...
- [Size: 829.93 MB]

True.Life.Now.S01E...
- [Size: 478.92 MB]

Turbulent.2018.HDR...
- [Size: 1.34 GB]

Pari (2018) Urdu 7...
- [Size: 923.05 MB]


Torrent Details For "The Little Mermaid Ariel's Beginning 2008 x264 720p Esub BluRay Dual Audio English Hindi GOPIS..."

The Little Mermaid Ariel's Beginning 2008 x264 720p Esub BluRay Dual Audio English Hindi GOPIS...

Download this torrent | Magnet Download
Health:
Seeds: 81
Leechers: 272
Completed: 52 
Last Checked: 09-01-2019 07:00:53
External Torrent
Update Stats



Images Host

Poster
No poster


Watch-Free-HD     Download

Details
Name:The Little Mermaid Ariel's Beginning 2008 x264 720p Esub BluRay Dual Audio English Hindi GOPIS...
Description:
 http://www.gopisahi.pw/

Format                         : Matroska

Format version                 : Version 4 / Version 2

File size                      : 495 MiB

Duration                       : 1 h 17 min

Overall bit rate               : 892 kb/s

Movie name                     : The Little Mermaid  Ariel's Beginning 2008 GOPISAHI


Video

Format                         : AVC

Format/Info                    : Advanced Video Codec

Codec ID                       : V_MPEG4/ISO/AVC

Duration                       : 1 h 17 min

Bit rate                       : 699 kb/s

Width                          : 1 280 pixels

Height                         : 720 pixels

Display aspect ratio           : 16:9

Frame rate mode                : Constant

Frame rate                     : 23.976 (24000/1001) FPS

Color space                    : YUV

Chroma subsampling             : 4:2:0

Bit depth                      : 8 bits

Scan type                      : Progressive

Bits/(Pixel*Frame)             : 0.032

Stream size                    : 387 MiB (78%)

Title                          : GOPISAHI

Writing library                : x264 core 155 r2901 7d0ff22


Audio #1

Format                         : AAC

Format/Info                    : Advanced Audio Codec

Duration                       : 1 h 17 min

Bit rate                       : 96.0 kb/s

Channel(s)                     : 2 channels

Channel positions              : Front: L R

Sampling rate                  : 48.0 kHz

Frame rate                     : 46.875 FPS (1024 SPF)

Compression mode               : Lossy

Delay relative to video        : -21 ms

Stream size                    : 53.1 MiB (11%)

Title                          : GOPISAHI

Language                       : Hindi


Audio #2

Format                         : AAC

Duration                       : 1 h 17 min

Bit rate                       : 96.0 kb/s

Channel(s)                     : 2 channels

Channel positions              : Front: L R

Sampling rate                  : 48.0 kHz

Frame rate                     : 46.875 FPS (1024 SPF)

Compression mode               : Lossy

Delay relative to video        : -21 ms

Stream size                    : 53.3 MiB (11%)

Title                          : GOPISAHI

Language                       : English


Text

Language                       : English


Category:Movies > Hollywood Dub
Lang:Hindi
Total Size:495.47 MB
Info Hash:84c2cb45a20fd868fc93a7479d7f53ff7b29f67b
Added By:gopisahi
Date Added:09-01-2019 04:01:20
Downloads:454

Ratings:Not Yet Rated (Log in to rate it)


Tracker:
udp://tracker.coppersurfer.tk:6969/announce


File List: 


Comments

No comments still posted

Top
Copyright 2018 DownloadHD -|- Page Generated In 0.432040 secs.
-|- RSS Feed -|- Feed Info