Login
Username:
Password:
[Signup]
[Recover Account]


Browse Torrents

Poll


You must be logged in to view polls



Latest Torrents
Seth.Meyers.2019.0...
- [Size: 582.37 MB]

Seth.Meyers.2019.0...
- [Size: 800.54 MB]

Turbulent.2018.HDR...
- [Size: 1.34 GB]

Raat Gayi Baat Gay...
- [Size: 829.93 MB]

True.Life.Now.S01E...
- [Size: 478.92 MB]


Torrent Details For "The Las Vegas Abductions 2008 x264 720p BluRay Dual Audio English Hindi GOPISAHI"

The Las Vegas Abductions 2008 x264 720p BluRay Dual Audio English Hindi GOPISAHI

Download this torrent | Magnet Download
Health:
Seeds: 128
Leechers: 445
Completed: 57 
Last Checked: 09-01-2019 07:00:57
External Torrent
Update Stats



Images Host

Poster
No poster


Watch-Free-HD     Download

Details
Name:The Las Vegas Abductions 2008 x264 720p BluRay Dual Audio English Hindi GOPISAHI
Description:
 http://www.gopisahi.pw/

Format                         : Matroska

Format version                 : Version 4 / Version 2

File size                      : 567 MiB

Duration                       : 1 h 27 min

Overall bit rate               : 906 kb/s

Movie name                     : The Las Vegas Abductions 2008 GOPISAHI


Video

Format                         : AVC

Format/Info                    : Advanced Video Codec

Codec ID                       : V_MPEG4/ISO/AVC

Duration                       : 1 h 21 min

Bit rate                       : 699 kb/s

Width                          : 1 280 pixels

Height                         : 720 pixels

Display aspect ratio           : 16:9

Frame rate mode                : Constant

Frame rate                     : 23.976 (24000/1001) FPS

Color space                    : YUV

Chroma subsampling             : 4:2:0

Bit depth                      : 8 bits

Scan type                      : Progressive

Bits/(Pixel*Frame)             : 0.032

Stream size                    : 407 MiB (72%)

Title                          : GOPISAHI

Writing library                : x264 core 155 r2901 7d0ff22


Audio #1

Format                         : AAC

Duration                       : 1 h 27 min

Bit rate                       : 96.0 kb/s

Channel(s)                     : 2 channels

Channel positions              : Front: L R

Sampling rate                  : 48.0 kHz

Frame rate                     : 46.875 FPS (1024 SPF)

Compression mode               : Lossy

Delay relative to video        : -21 ms

Stream size                    : 60.2 MiB (11%)

Title                          : GOPISAHI

Language                       : Hindi


Audio #2

Format                         : AAC

Duration                       : 1 h 27 min

Bit rate                       : 157 kb/s

Channel(s)                     : 2 channels

Channel positions              : Front: L R

Sampling rate                  : 48.0 kHz

Frame rate                     : 46.875 FPS (1024 SPF)

Compression mode               : Lossy

Delay relative to video        : -21 ms

Stream size                    : 98.4 MiB (17%)

Title                          : GOPISAHI

Language                       : English


Category:Movies > Hollywood Dub
Lang:Hindi
Total Size:566.93 MB
Info Hash:d2d3359649d2a13a7b5430979870741699b20963
Added By:gopisahi
Date Added:09-01-2019 03:58:58
Downloads:500

Ratings:Not Yet Rated (Log in to rate it)


Tracker:
udp://tracker.coppersurfer.tk:6969/announce


File List: 


Comments

No comments still posted

Top
Copyright 2018 DownloadHD -|- Page Generated In 0.482697 secs.
-|- RSS Feed -|- Feed Info