Login
Username:
Password:
[Signup]
[Recover Account]


Browse Torrents

Poll


You must be logged in to view polls



Latest Torrents
Turbulent.2018.HDR...
- [Size: 1.34 GB]

Raat Gayi Baat Gay...
- [Size: 829.93 MB]

True.Life.Now.S01E...
- [Size: 478.92 MB]

Turbulent.2018.HDR...
- [Size: 1.34 GB]

Pari (2018) Urdu 7...
- [Size: 923.05 MB]


Torrent Details For "The Echo 2008 x264 720p BluRay Dual Audio English Hindi GOPISAHI"

The Echo 2008 x264 720p BluRay Dual Audio English Hindi GOPISAHI

Download this torrent | Magnet Download
Health:
Seeds: 433
Leechers: 588
Completed: 274 
Last Checked: 08-01-2019 10:04:37
External Torrent
Update Stats



Images Host

Poster
No poster


Watch-Free-HD     Download

Details
Name:The Echo 2008 x264 720p BluRay Dual Audio English Hindi GOPISAHI
Description:
 http://www.gopisahi.pw/

Format                         : Matroska

Format version                 : Version 4 / Version 2

File size                      : 598 MiB

Duration                       : 1 h 33 min

Overall bit rate               : 894 kb/s

Movie name                     : The Echo 2008 GOPISAHI


Video

Format                         : AVC

Format/Info                    : Advanced Video Codec

Codec ID                       : V_MPEG4/ISO/AVC

Duration                       : 1 h 33 min

Bit rate                       : 699 kb/s

Width                          : 1 264 pixels

Height                         : 528 pixels

Display aspect ratio           : 2.40:1

Frame rate mode                : Constant

Frame rate                     : 23.976 (24000/1001) FPS

Color space                    : YUV

Chroma subsampling             : 4:2:0

Bit depth                      : 8 bits

Scan type                      : Progressive

Bits/(Pixel*Frame)             : 0.044

Stream size                    : 467 MiB (78%)

Title                          : GOPISAHI

Writing library                : x264 core 155 r2901 7d0ff22


Audio #1

Format                         : AAC

Duration                       : 1 h 33 min

Bit rate                       : 96.0 kb/s

Channel(s)                     : 2 channels

Channel positions              : Front: L R

Sampling rate                  : 48.0 kHz

Frame rate                     : 46.875 FPS (1024 SPF)

Compression mode               : Lossy

Delay relative to video        : -521 ms

Stream size                    : 64.3 MiB (11%)

Title                          : GOPISAHI

Language                       : Hindi


Audio #2

Format                         : AAC

Duration                       : 1 h 33 min

Bit rate                       : 96.0 kb/s

Channel(s)                     : 2 channels

Channel positions              : Front: L R

Sampling rate                  : 48.0 kHz

Frame rate                     : 46.875 FPS (1024 SPF)

Compression mode               : Lossy

Delay relative to video        : -521 ms

Stream size                    : 64.3 MiB (11%)


Title                          : GOPISAHI

Language                       : English


Category:Movies > Hollywood Dub
Lang:Hindi
Total Size:597.70 MB
Info Hash:daaae435ddb58df09e3a86589c6691d85617057c
Added By:gopisahi
Date Added:08-01-2019 03:49:28
Downloads:376

Ratings:Not Yet Rated (Log in to rate it)


Tracker:
udp://tracker.coppersurfer.tk:6969/announce


File List: 


Comments

No comments still posted

Top
Copyright 2018 DownloadHD -|- Page Generated In 0.472950 secs.
-|- RSS Feed -|- Feed Info