Login
Username:
Password:
[Signup]
[Recover Account]


Browse Torrents

Poll


You must be logged in to view polls



Latest Torrents
Out.of.Many.One.20...
- [Size: 777.30 MB]

Ellens.Game.of.Gam...
- [Size: 606.51 MB]

Robot 2.0 (2018) C...
- [Size: 2.53 GB]

Pataakha (2018) HD...
- [Size: 2.43 GB]

Jimmy.Kimmel.2018....
- [Size: 327.21 MB]


Torrent Details For "Smallfoot.2018.1080p.BluRay.x264.DTS-HD.MA.5.1-FGT"

Smallfoot.2018.1080p.BluRay.x264.DTS-HD.MA.5.1-FGT

Download this torrent | Magnet Download
Health:
Seeds: 196
Leechers: 300
Completed: 774 
Last Checked: 07-12-2018 13:26:09
External Torrent
Update Stats



Images Host

Poster


iMDB
Title: Smallfoot
Year: 2018
Runtime: 96 minutes
Votes: 782
Rating: 6.8/10
Language: English
Tagline: Not every legend is a tall tale.
Director: Karey Kirkpatrick
Jason Reisig
Writing By: Karey Kirkpatrick,Clare Sera,John Requa,Glenn Ficarra,Karey Kirkpatrick,Sergio Pablos,Sergio Pablos,Eyal Podell,Jonathon E. Stewart,
Produced By: Allison Abbate,Jacky Chrisp,Glenn Ficarra,Karey Kirkpatrick,Phil Lord,Skye Lyons,Christopher Miller,Sergio Pablos,Bonne Radford,John Requa,Jared Stern,Nicholas Stoller,Courtenay Valenti,
Cast:
Channing Tatum as Migo
James Corden as Percy
Zendaya as Meechee
Common as Stonekeeper
LeBron James as Gwangi
Danny DeVito as Dorgle
Gina Rodriguez as Kolka
Yara Shahidi as Brenda
Ely Henry as Fleem
Jimmy Tatro as Thorp
Trailers:
Final Trailer
U.S. Trailer
International Teaser


Watch-Free-HD     Download

Details
Name:Smallfoot.2018.1080p.BluRay.x264.DTS-HD.MA.5.1-FGT
Description:
Video
ID : 1
Format : AVC
Format/Info : Advanced Video Codec
Format profile : [email protected]
Format settings : CABAC / 5 Ref Frames
Format settings, CABAC : Yes
Format settings, ReFrames : 5 frames
Codec ID : V_MPEG4/ISO/AVC
Duration : 1 h 36 min
Bit rate : 6 613 kb/s
Width : 1 920 pixels
Height : 800 pixels
Display aspect ratio : 2.40:1
Frame rate mode : Constant
Frame rate : 23.976 (24000/1001) FPS
Color space : YUV
Chroma subsampling : 4:2:0
Bit depth : 8 bits
Scan type : Progressive
Bits/(Pixel*Frame) : 0.180
Stream size : 4.45 GiB (61%)
Title : Smallfoot.2018.1080p.BluRay.x264.DTS-HD.MA.5.1-FGT
Writing library : x264 core 157 r2935 545de2f
Encoding settings : cabac=1 / ref=5 / deblock=1:1:1 / analyse=0x3:0x113 / me=umh / subme=8 / psy=1 / psy_rd=0.40:0.00 / mixed_ref=1 / me_range=16 / chroma_me=1 / trellis=1 / 8x8dct=1 / cqm=0 / deadzone=21,11 / fast_pskip=1 / chroma_qp_offset=-2 / threads=24 / lookahead_threads=4 / sliced_threads=0 / nr=0 / decimate=1 / interlaced=0 / bluray_compat=0 / constrained_intra=0 / bframes=5 / b_pyramid=2 / b_adapt=1 / b_bias=0 / direct=3 / weightb=1 / open_gop=0 / weightp=2 / keyint=250 / keyint_min=23 / scenecut=40 / intra_refresh=0 / rc_lookahead=50 / rc=2pass / mbtree=1 / bitrate=6613 / ratetol=1.0 / qcomp=0.60 / qpmin=0 / qpmax=69 / qpstep=4 / cplxblur=20.0 / qblur=0.5 / ip_ratio=1.40 / aq=1:0.60
Language : English
Default : Yes
Forced : No

Audio
ID : 2
Format : DTS XLL
Format/Info : Digital Theater Systems
Commercial name : DTS-HD Master Audio
Codec ID : A_DTS
Duration : 1 h 36 min
Bit rate mode : Variable
Bit rate : 4 179 kb/s
Channel(s) : 6 channels
Channel layout : C L R Ls Rs LFE
Sampling rate : 48.0 kHz
Frame rate : 93.750 FPS (512 SPF)
Bit depth : 24 bits
Compression mode : Lossless
Stream size : 2.81 GiB (39%)
Title : Smallfoot.2018.1080p.BluRay.x264.DTS-HD.MA.5.1-FGT
Language : English
Default : Yes
Forced : No


 http://imagecurl.com/viewer.p...8916562114913550.png


 http://imagecurl.com/viewer.p...7064531999384709.png


 http://imagecurl.com/viewer.p...5119959.png[/center]
Category:Movies > 1080P Bluray
Lang:English  English
Total Size:7.30 GB
Info Hash:adeb9b7b779b363efbd92ee441d1b29d564c5914
Added By:Scene
Date Added:07-12-2018 12:10:05
Downloads:30

Ratings:Not Yet Rated (Log in to rate it)


Tracker:
http://tracker.trackerfix.com:80/announce


File List: 


Comments

No comments still posted

Top
Copyright 2018 DownloadHD -|- Page Generated In 0.210198 secs.
-|- RSS Feed -|- Feed Info