Login
Username:
Password:
[Signup]
[Recover Account]


Browse Torrents

Poll


You must be logged in to view polls



Latest Torrents
Out.of.Many.One.20...
- [Size: 1.49 GB]

Jalebi (2018) Hind...
- [Size: 775.40 MB]

18+ Bishh (2018) B...
- [Size: 582.36 MB]

Out.of.Many.One.20...
- [Size: 777.30 MB]

Ellens.Game.of.Gam...
- [Size: 606.51 MB]


Torrent Details For "Venom 2018 1080p BluRay x264 DTS [MW]"

Venom 2018 1080p BluRay x264 DTS [MW]

Download this torrent | Magnet Download
Health:
Seeds: 185
Leechers: 57
Completed: 4,564 
Last Checked: 12-12-2018 19:07:14
External Torrent
Update Stats



Images Host

Poster
No poster


Watch-Free-HD     Download

Details
Name:Venom 2018 1080p BluRay x264 DTS [MW]
Description:

 

General
Format                                   : Matroska
Format version                           : Version 4 / Version 2
File size                                : 2.95 GiB
Duration                                 : 1 h 52 min
Overall bit rate                         : 3 770 kb/s

Video
ID                                       : 1
Format                                   : AVC
Format/Info                              : Advanced Video Codec
Format profile                           : [email protected]
Format settings                          : CABAC / 4 Ref Frames
Format settings, CABAC                   : Yes
Format settings, RefFrames               : 4 frames
Codec ID                                 : V_MPEG4/ISO/AVC
Duration                                 : 1 h 52 min
Bit rate                                 : 3 000 kb/s
Width                                    : 1 920 pixels
Height                                   : 800 pixels
Display aspect ratio                     : 2.40:1
Frame rate mode                          : Constant
Frame rate                               : 23.976 (24000/1001) FPS
Color space                              : YUV
Chroma subsampling                       : 4:2:0
Bit depth                                : 8 bits
Scan type                                : Progressive
Bits/(Pixel*Frame)                       : 0.081
Stream size                              : 2.36 GiB (80%)
Writing library                          : x264 core 155 r2901 7d0ff22
Default                                  : Yes
Forced                                   : No

Audio
ID                                       : 2
Format                                   : DTS
Format/Info                              : Digital Theater Systems
Codec ID                                 : A_DTS
Duration                                 : 1 h 52 min
Bit rate mode                            : Constant
Bit rate                                 : 756 kb/s
Channel(s)                               : 6 channels
Channel positions                        : Front: L C R, Side: L R, LFE
Sampling rate                            : 48.0 kHz
Frame rate                               : 93.750 FPS (512 SPF)
Bit depth                                : 16 bits
Compression mode                         : Lossy
Stream size                              : 606 MiB (20%)
Language                                 : English
Default                                  : Yes
Forced                                   : No

Text #1
ID                                       : 3
Format                                   : UTF-8
Codec ID                                 : S_TEXT/UTF8
Codec ID/Info                            : UTF-8 Plain Text
Duration                                 : 1 h 49 min
Bit rate                                 : 57 b/s
Count of elements                        : 1474
Stream size                              : 45.7 KiB (0%)
Language                                 : English
Default                                  : No
Forced                                   : No

Text #2
ID                                       : 4
Format                                   : UTF-8
Codec ID                                 : S_TEXT/UTF8
Codec ID/Info                            : UTF-8 Plain Text
Duration                                 : 1 h 49 min
Bit rate                                 : 68 b/s
Count of elements                        : 1828
Stream size                              : 55.2 KiB (0%)
Language                                 : English
Default                                  : No
Forced                                   : No

Menu
00:00:00.000                             : en:00:00:00.000
00:04:43.200                             : en:00:04:43.200
00:10:58.074                             : en:00:10:58.074
00:17:34.929                             : en:00:17:34.929
00:24:05.486                             : en:00:24:05.486
00:32:18.812                             : en:00:32:18.812
00:40:07.447                             : en:00:40:07.447
00:46:51.976                             : en:00:46:51.976
00:53:26.203                             : en:00:53:26.203
01:00:57.070                             : en:01:00:57.070
01:04:01.796                             : en:01:04:01.796
01:08:36.446                             : en:01:08:36.446
01:11:12.852                             : en:01:11:12.852
01:14:15.743                             : en:01:14:15.743
01:21:18.749                             : en:01:21:18.749
01:27:15.021                             : en:01:27:15.021

Click To View Image

 http://pichub.site/image/c00gN
 http://pichub.site/image/c0xST
 http://pichub.site/image/c0oMZ
 http://pichub.site/image/c0LnD
 http://pichub.site/image/c0ptg
 http://pichub.site/image/c022I

Category:Movies > 1080P Bluray
Lang:English  English
Total Size:2.95 GB
Info Hash:afaac3307488ec8f3eda7452b29d5051f24e7ca5
Added By:Freaky
Date Added:07-12-2018 09:14:16
Downloads:96

Ratings:Not Yet Rated (Log in to rate it)


Tracker:
udp://tracker.coppersurfer.tk:6969/announce


File List: 


Comments

No comments still posted

Top
Copyright 2018 DownloadHD -|- Page Generated In 0.309234 secs.
-|- RSS Feed -|- Feed Info