Login
Username:
Password:
[Signup]
[Recover Account]


Browse Torrents

Poll


You must be logged in to view polls



Latest Torrents
Medici.S01E01.720p...
- [Size: 1.55 GB]

Room.104.S02E11.Sh...
- [Size: 1.64 GB]

MENTAL (2018) 720p...
- [Size: 866.05 MB]

Protector.S01.Hind...
- [Size: 6.09 GB]

Hello Naan Pei Pes...
- [Size: 1.52 GB]


Torrent Details For "Music.Within.2007.LIMITED.1080p.Bluray.x264-AN0NYM0US"

Music.Within.2007.LIMITED.1080p.Bluray.x264-AN0NYM0US

Download this torrent | Magnet Download
Health:
Seeds: 4
Leechers: 70
Completed:
Last Checked: 06-12-2018 17:50:21
External Torrent
Update Stats



Images Host

Poster


iMDB
Title: Music Within
Year: 2007
Runtime: 94 minutes
Votes: 5329
Rating: 7.4/10
Language: English
Tagline: Experience a movie that will make you believe anyone can change the world.
Director: Steven Sawalich
Writing By: Bret McKinney,Mark Andrew Olsen,Kelly Kennemer,
Produced By: Brett Donowho,Bruce Wayne Gillies,Oli Laperal Jr.,Ron Livingston,Steven Sawalich,F.X. Vitolo,
Music: James T. Sale
Cast:
Clint Jung as Richard's Dad
Melissa George as Christine
Marion Ross as Grandma
Rebecca De Mornay as Richard's Mom
Janssen Van De Yacht as Toddler Richard
Ridge Canipe as Young Richard
Paul Michael as Joe
John Livingston as Mr. Parks
TyZhaun Lewis as Aaron
Ron Livingston as Richard
Trailers:
Music Within


Watch-Free-HD     Download

Details
Name:Music.Within.2007.LIMITED.1080p.Bluray.x264-AN0NYM0US
Description:

Video
ID : 1
Format : AVC
Format/Info : Advanced Video Codec
Format profile : [email protected]
Format settings : CABAC / 4 Ref Frames
Format settings, CABAC : Yes
Format settings, ReFrames : 4 frames
Codec ID : V_MPEG4/ISO/AVC
Duration : 1 h 33 min
Bit rate : 8 490 kb/s
Width : 1 920 pixels
Height : 1 040 pixels
Display aspect ratio : 1.85:1
Frame rate mode : Constant
Frame rate : 23.976 (24000/1001) FPS
Color space : YUV
Chroma subsampling : 4:2:0
Bit depth : 8 bits
Scan type : Progressive
Bits/(Pixel*Frame) : 0.177
Stream size : 5.43 GiB (83%)
Writing library : x264 core 128 r2216 198a7ea
Encoding settings : cabac=1 / ref=4 / deblock=1:0:0 / analyse=0x3:0x113 / me=umh / subme=8 / psy=1 / psy_rd=1.00:0.00 / mixed_ref=1 / me_range=16 / chroma_me=1 / trellis=1 / 8x8dct=1 / cqm=0 / deadzone=21,11 / fast_pskip=1 / chroma_qp_offset=-2 / threads=12 / lookahead_threads=2 / sliced_threads=0 / nr=0 / decimate=1 / interlaced=0 / bluray_compat=0 / constrained_intra=0 / bframes=3 / b_pyramid=2 / b_adapt=2 / b_bias=0 / direct=3 / weightb=1 / open_gop=0 / weightp=2 / keyint=240 / keyint_min=24 / scenecut=40 / intra_refresh=0 / rc_lookahead=50 / rc=2pass / mbtree=1 / bitrate=8490 / ratetol=1.0 / qcomp=0.60 / qpmin=0 / qpmax=69 / qpstep=4 / cplxblur=20.0 / qblur=0.5 / ip_ratio=1.40 / aq=1:1.00
Language : English
Default : Yes
Forced : No

Audio
ID : 2
Format : DTS
Format/Info : Digital Theater Systems
Codec ID : A_DTS
Duration : 1 h 33 min
Bit rate mode : Constant
Bit rate : 1 509 kb/s
Channel(s) : 6 channels
Channel layout : C L R Ls Rs LFE
Sampling rate : 48.0 kHz
Frame rate : 93.750 FPS (512 SPF)
Bit depth : 24 bits
Compression mode : Lossy
Stream size : 1 013 MiB (15%)
Title : English DTS 1509kbps
Language : English
Default : Yes
Forced : No

Menu
00:00:00.000 : en:00:00:00.000
00:09:18.308 : en:00:09:18.308
00:20:12.878 : en:00:20:12.878
00:29:53.291 : en:00:29:53.291
00:40:24.714 : en:00:40:24.714
00:50:07.504 : en:00:50:07.504
01:00:26.748 : en:01:00:26.748
01:11:32.872 : en:01:11:32.872
01:22:16.390 : en:01:22:16.390


 http://imagecurl.com/viewer.p...9020343778442651.png


 http://imagecurl.com/viewer.p...9343135496078012.png



 http://imagecurl.com/viewer.p...3775665.png[/center]
Category:Movies > 1080P Bluray
Lang:English  English
Total Size:6.55 GB
Info Hash:7dc7541fa56f7c3ed0969763819d8bca457be990
Added By:Scene
Date Added:06-12-2018 17:18:11
Downloads:21

Ratings:Not Yet Rated (Log in to rate it)


Tracker:
http://tracker.trackerfix.com:80/announce


File List: 


Comments

No comments still posted

Top
Copyright 2018 DownloadHD -|- Page Generated In 0.280474 secs.
-|- RSS Feed -|- Feed Info