Login
Username:
Password:
[Signup]
[Recover Account]


Browse Torrents

Poll


You must be logged in to view polls



Latest Torrents
The Invention Of ...
- [Size: 637.15 MB]

The Protector S01 ...
- [Size: 3.77 GB]

Saturday.Night.Liv...
- [Size: 1.33 GB]

Fantastic Beasts T...
- [Size: 1.17 GB]

Saturday.Night.Liv...
- [Size: 982.59 MB]


Torrent Details For "Ride.2018.1080p.BluRay.x264.DTS-FGT"

Ride.2018.1080p.BluRay.x264.DTS-FGT

Download this torrent | Magnet Download
Health:
Seeds: 84
Leechers: 138
Completed: 408 
Last Checked: 06-12-2018 17:54:45
External Torrent
Update Stats



Images Host

Poster


iMDB
Title: Ride
Year: 2018
Runtime: 79 minutes
Votes: 124
Rating: 4.6/10
Language: English
Tagline: Some Rides Should Never Be Shared
Director: Jeremy Ungar
Writing By: Jeremy Ungar,
Produced By: Dean Buchanan,Sefton Fincham,John Giagoudis,David Grace,Tyler Jackson,Justin Jacobson,Keith Kjarval,Joe Mullen,Mike Rowe,Matthew B. Schmidt,Levi Sheck,Alexander Smith,Bella Thorne,Jessie T. Usher,
Music: Paul Haslinger
Cast:
Bella Thorne as Jessica
Jessie T. Usher as James
Will Brill as Bruno
Byron L. Hopkins as Club Bouncer
Hailee Keanna Lautenbach as Lucy
Sara Lindsey as Promoter
Trailers:
Official Trailer


Watch-Free-HD     Download

Details
Name:Ride.2018.1080p.BluRay.x264.DTS-FGT
Description:

Video
ID : 1
Format : AVC
Format/Info : Advanced Video Codec
Format profile : [email protected]
Format settings : CABAC / 4 Ref Frames
Format settings, CABAC : Yes
Format settings, ReFrames : 4 frames
Codec ID : V_MPEG4/ISO/AVC
Duration : 1 h 16 min
Bit rate : 11.5 Mb/s
Width : 1 920 pixels
Height : 800 pixels
Display aspect ratio : 2.40:1
Frame rate mode : Constant
Frame rate : 23.976 (24000/1001) FPS
Color space : YUV
Chroma subsampling : 4:2:0
Bit depth : 8 bits
Scan type : Progressive
Bits/(Pixel*Frame) : 0.312
Stream size : 6.12 GiB (88%)
Title : Ride.2018.1080p.BluRay.x264.DTS-FGT
Writing library : x264 core 148 r2795M aaa9aa8
Encoding settings : cabac=1 / ref=4 / deblock=1:-2:-2 / analyse=0x3:0x113 / me=umh / subme=9 / psy=1 / psy_rd=1.00:0.15 / mixed_ref=1 / me_range=16 / chroma_me=1 / trellis=2 / 8x8dct=1 / cqm=0 / deadzone=21,11 / fast_pskip=1 / chroma_qp_offset=-3 / threads=72 / lookahead_threads=3 / sliced_threads=0 / nr=0 / decimate=1 / interlaced=0 / bluray_compat=0 / constrained_intra=0 / bframes=3 / b_pyramid=2 / b_adapt=1 / b_bias=0 / direct=3 / weightb=1 / open_gop=0 / weightp=2 / keyint=250 / keyint_min=25 / scenecut=40 / intra_refresh=0 / rc_lookahead=50 / rc=2pass / mbtree=1 / bitrate=11500 / ratetol=1.0 / qcomp=0.60 / qpmin=0 / qpmax=69 / qpstep=4 / cplxblur=20.0 / qblur=0.5 / vbv_maxrate=31250 / vbv_bufsize=31250 / nal_hrd=none / filler=0 / ip_ratio=1.40 / aq=1:1.00
Language : English
Default : Yes
Forced : No

Audio
ID : 2
Format : DTS
Format/Info : Digital Theater Systems
Codec ID : A_DTS
Duration : 1 h 16 min
Bit rate mode : Constant
Bit rate : 1 509 kb/s
Channel(s) : 6 channels
Channel layout : C L R Ls Rs LFE
Sampling rate : 48.0 kHz
Frame rate : 93.750 FPS (512 SPF)
Bit depth : 24 bits
Compression mode : Lossy
Stream size : 822 MiB (12%)
Title : Ride.2018.1080p.BluRay.x264.DTS-FGT
Language : English
Default : No
Forced : No


 http://imagecurl.com/viewer.p...1849949867495822.png



 http://imagecurl.com/viewer.p...7108666485256363.png



 http://imagecurl.com/viewer.p...1704188.png[/center]
Category:Movies > 1080P Bluray
Lang:English  English
Total Size:6.92 GB
Info Hash:fa290367811e726ea849312ac66296510f4da06c
Added By:Scene
Date Added:06-12-2018 16:29:30
Downloads:42

Ratings:Not Yet Rated (Log in to rate it)


Tracker:
http://tracker.trackerfix.com:80/announce


File List: 


Comments

No comments still posted

Top
Copyright 2018 DownloadHD -|- Page Generated In 0.265935 secs.
-|- RSS Feed -|- Feed Info