Login
Username:
Password:
[Signup]
[Recover Account]


Browse Torrents

Poll


You must be logged in to view polls



Latest Torrents
Meri Pyaari Bindu ...
- [Size: 2.73 GB]

Jimmy.Fallon.2018....
- [Size: 582.81 MB]

Vir.Das.Losing.It....
- [Size: 376.68 MB]

James.Corden.2018....
- [Size: 882.81 MB]

James.Corden.2018....
- [Size: 628.89 MB]


Torrent Details For "Extraordinary.Mission.2017.CHINESE.1080p.BluRay.H264.AAC-VXT"

Extraordinary.Mission.2017.CHINESE.1080p.BluRay.H264.AAC-VXT

Download this torrent | Magnet Download
Health:
Seeds: 138
Leechers: 106
Completed: 778 
Last Checked: 06-12-2018 13:30:57
External Torrent
Update Stats



Images Host

Poster


iMDB
Imdb Picture Title: Extraordinary Mission
Year: 2017
Runtime: 117 minutes
Votes: 99
Rating: 7.1/10
Language: Mandarin
Country: China
All Genres: Action, Crime
Plot Outline: The film revolves an undercover police officer who attempts to take down a drug trafficking syndicate from the inside.
Director: Alan Mak
Anthony Pun
Writing By: Felix Chong,
Produced By: Ronald Wong,
Music: Kwong Wing Chan Taq Sakakibara
Plot:

The film revolves an undercover police officer who attempts to take down a drug trafficking syndicate from the inside.


Cast:
Yihong Duan as
Xuan Huang as
Yueting Lang as
Jiadong Xing as
Feng Zu as


Watch-Free-HD     Download

Details
Name:Extraordinary.Mission.2017.CHINESE.1080p.BluRay.H264.AAC-VXT
Description:
Video
ID : 1
Format : AVC
Format/Info : Advanced Video Codec
Format profile : [email protected]
Format settings : CABAC / 4 Ref Frames
Format settings, CABAC : Yes
Format settings, ReFrames : 4 frames
Codec ID : avc1
Codec ID/Info : Advanced Video Coding
Duration : 2 h 1 min
Bit rate : 2 500 kb/s
Width : 1 920 pixels
Height : 808 pixels
Display aspect ratio : 2.40:1
Frame rate mode : Constant
Frame rate : 23.976 (23976/1000) FPS
Color space : YUV
Chroma subsampling : 4:2:0
Bit depth : 8 bits
Scan type : Progressive
Bits/(Pixel*Frame) : 0.067
Stream size : 2.12 GiB (92%)
Writing library : x264 core 152 r2851M ba24899
Encoding settings : cabac=1 / ref=4 / deblock=1:-1:-1 / analyse=0x3:0x113 / me=umh / subme=9 / psy=1 / psy_rd=1.00:0.15 / mixed_ref=1 / me_range=24 / chroma_me=1 / trellis=2 / 8x8dct=1 / cqm=0 / deadzone=21,11 / fast_pskip=1 / chroma_qp_offset=-3 / threads=32 / lookahead_threads=4 / sliced_threads=0 / nr=0 / decimate=1 / interlaced=0 / bluray_compat=0 / constrained_intra=0 / bframes=3 / b_pyramid=2 / b_adapt=2 / b_bias=0 / direct=3 / weightb=1 / open_gop=0 / weightp=2 / keyint=250 / keyint_min=25 / scenecut=40 / intra_refresh=0 / rc_lookahead=50 / rc=2pass / mbtree=1 / bitrate=2500 / ratetol=1.0 / qcomp=0.60 / qpmin=0 / qpmax=69 / qpstep=4 / cplxblur=20.0 / qblur=0.5 / vbv_maxrate=31250 / vbv_bufsize=31250 / nal_hrd=none / filler=0 / ip_ratio=1.40 / aq=3:1.00
Encoded date : UTC 2018-12-06 08:14:52
Tagged date : UTC 2018-12-06 08:14:52
Codec configuration box : avcC

Audio
ID : 2
Format : AAC LC
Format/Info : Advanced Audio Codec Low Complexity
Codec ID : mp4a-40-2
Duration : 2 h 1 min
Bit rate mode : Constant
Bit rate : 224 kb/s
Channel(s) : 6 channels
Channel layout : C L R Ls Rs LFE
Sampling rate : 48.0 kHz
Frame rate : 46.875 FPS (1024 SPF)
Compression mode : Lossy
Stream size : 195 MiB (8%)
Language : Chinese
Default : Yes
Alternate group : 1
Encoded date : UTC 2018-12-06 08:14:52
Tagged date : UTC 2018-12-06 08:14:52



 http://imagecurl.com/viewer.p...7238078096963518.png


 http://imagecurl.com/viewer.p...5834365745305425.png



 http://imagecurl.com/viewer.p...7793286.png[/center]
Category:Movies > 1080P Bluray
Lang:Chinese
Total Size:2.32 GB
Info Hash:0a0966ec037cbf07482dcfe7885bd4788faa28e3
Added By:Scene
Date Added:06-12-2018 10:31:01
Downloads:49

Ratings:Not Yet Rated (Log in to rate it)


Tracker:
http://tracker.trackerfix.com:80/announce


File List: 


Comments

No comments still posted

Top
Copyright 2018 DownloadHD -|- Page Generated In 0.202239 secs.
-|- RSS Feed -|- Feed Info