Login
Username:
Password:
[Signup]
[Recover Account]


Browse Torrents

Poll


You must be logged in to view polls



Latest Torrents
James.Corden.2018....
- [Size: 882.81 MB]

James.Corden.2018....
- [Size: 628.89 MB]

Black.Ink.Crew.S07...
- [Size: 650.59 MB]

Catfish.The.TV.Sho...
- [Size: 542.39 MB]

Singham (2011) Hin...
- [Size: 1.02 GB]


Torrent Details For "At First Light 2018 1080p BluRay x264 DTS [MW]"

At First Light 2018 1080p BluRay x264 DTS [MW]

Download this torrent | Magnet Download
Health:
Seeds: 8
Leechers: 52
Completed: 14 
Last Checked: 06-12-2018 08:04:51
External Torrent
Update Stats



Images Host

Poster
No poster


Watch-Free-HD     Download

Details
Name:At First Light 2018 1080p BluRay x264 DTS [MW]
Description:

 

General
Format                                   : Matroska
Format version                           : Version 4 / Version 2
File size                                : 2.01 GiB
Duration                                 : 1 h 30 min
Overall bit rate                         : 3 172 kb/s

Video
ID                                       : 1
Format                                   : AVC
Format/Info                              : Advanced Video Codec
Format profile                           : [email protected]
Format settings                          : CABAC / 4 Ref Frames
Format settings, CABAC                   : Yes
Format settings, RefFrames               : 4 frames
Codec ID                                 : V_MPEG4/ISO/AVC
Duration                                 : 1 h 30 min
Bit rate                                 : 2 500 kb/s
Width                                    : 1 920 pixels
Height                                   : 808 pixels
Display aspect ratio                     : 2.40:1
Frame rate mode                          : Constant
Frame rate                               : 23.976 (24000/1001) FPS
Color space                              : YUV
Chroma subsampling                       : 4:2:0
Bit depth                                : 8 bits
Scan type                                : Progressive
Bits/(Pixel*Frame)                       : 0.067
Stream size                              : 1.53 GiB (76%)
Writing library                          : x264 core 155 r2901 7d0ff22
Default                                  : Yes
Forced                                   : No

Audio
ID                                       : 2
Format                                   : DTS
Format/Info                              : Digital Theater Systems
Codec ID                                 : A_DTS
Duration                                 : 1 h 30 min
Bit rate mode                            : Constant
Bit rate                                 : 756 kb/s
Channel(s)                               : 6 channels
Channel positions                        : Front: L C R, Side: L R, LFE
Sampling rate                            : 48.0 kHz
Frame rate                               : 93.750 FPS (512 SPF)
Bit depth                                : 16 bits
Compression mode                         : Lossy
Stream size                              : 491 MiB (24%)
Language                                 : English
Default                                  : Yes
Forced                                   : No

Text
ID                                       : 3
Format                                   : UTF-8
Codec ID                                 : S_TEXT/UTF8
Codec ID/Info                            : UTF-8 Plain Text
Duration                                 : 1 h 24 min
Bit rate                                 : 30 b/s
Count of elements                        : 699
Stream size                              : 19.0 KiB (0%)
Language                                 : English
Default                                  : No
Forced                                   : No

Menu
00:00:00.000                             : en:00:00:00.000
00:10:12.278                             : en:00:10:12.278
00:19:51.524                             : en:00:19:51.524
00:29:01.698                             : en:00:29:01.698
00:40:09.157                             : en:00:40:09.157
00:50:31.278                             : en:00:50:31.278
00:59:09.296                             : en:00:59:09.296
01:10:19.465                             : en:01:10:19.465
01:20:08.512                             : en:01:20:08.512

Click To View Image

 http://pichub.site/image/cx7Q0
 http://pichub.site/image/cxc7V
 http://pichub.site/image/cxkGT
 http://pichub.site/image/cxwZN
 http://pichub.site/image/cxCOD
 http://pichub.site/image/cxhAZ

Category:Movies > 1080P Bluray
Lang:English  English
Total Size:2.01 GB
Info Hash:7bac6db2d693cfdf0e4ecd478abf1998dd8302c6
Added By:Freaky
Date Added:06-12-2018 08:04:26
Downloads:55

Ratings:Not Yet Rated (Log in to rate it)


Tracker:
udp://tracker.coppersurfer.tk:6969/announce


File List: 


Comments

No comments still posted

Top
Copyright 2018 DownloadHD -|- Page Generated In 0.801903 secs.
-|- RSS Feed -|- Feed Info