Login
Username:
Password:
[Signup]
[Recover Account]


Browse Torrents

Poll


You must be logged in to view polls



Latest Torrents
A.Simple.Favor.201...
- [Size: 15.57 GB]

Dementia.13.2017.1...
- [Size: 3.36 GB]

God.Friended.Me.S0...
- [Size: 3.22 GB]

Shiner.2018.AMZN.W...
- [Size: 1.40 GB]

The Grump Who Stol...
- [Size: 5.11 GB]


Torrent Details For "Fantastic Beasts The Crimes of Grindelwald (2018) 720p English NEW HDCAM x264 AAC 950MB [MovCr]"

Fantastic Beasts The Crimes of Grindelwald (2018) 720p English NEW HDCAM x264 AAC 950MB [MovCr]

Download this torrent | Magnet Download
Health:
Seeds: 295
Leechers: 80
Completed: 17,172 
Last Checked: 05-12-2018 06:50:18
External Torrent
Update Stats



Images Host

Poster


iMDB
Title: Fantastic Beasts: The Crimes of Grindelwald
Year: 2018
Runtime: 134 minutes
Votes: 8979
Rating: 7.5/10
Language: English
Tagline: The fate of one will change the future of all.
Director: David Yates
Writing By: J.K. Rowling,J.K. Rowling,
Produced By: Neil Blair,Danny Cohen,David Heyman,Steve Kloves,Tim Lewis,Josh Robertson,J.K. Rowling,Rick Senat,Lionel Wigram,
Music: James Newton Howard
Cast:
Johnny Depp as Grindelwald
Kevin Guthrie as Abernathy
Carmen Ejogo as Seraphina Picquery
Wolf Roth as Spielman
Eddie Redmayne as Newt Scamander
Zoƫ Kravitz as Leta Lestrange
Callum Turner as Theseus Scamander
Derek Riddell as Torquil Travers
Cornell John as Arnold Guzman
Ezra Miller as Credence Barebone
Trailers:
Official Trailer
Watch the Trailer
Final Trailer
Official Comic-Con Trailer
Teaser Trailer
Trailer Tease


Watch-Free-HD     Download

Details
Name:Fantastic Beasts The Crimes of Grindelwald (2018) 720p English NEW HDCAM x264 AAC 950MB [MovCr]
Description:
Our Site   www.movcr.cc


Fantastic Beasts The Crimes of Grindelwald (2018) 720p English NEW HDCAM x264 AAC 950MB [MovCr]




 http://www.imdb.com/title/tt4123430/

 


General
Unique ID                                : 148054471921951878006369460654743236355 (0x6F62410BE0BF30E856126091008C2F03)
Complete name                            : www.MovCr.cc - Fantastic Beasts The Crimes of Grindelwald (2018) 720p English NEW HDCAM x264 AAC 950MB [MovCr].mkv
Format                                   : Matroska
Format version                           : Version 4 / Version 2
File size                                : 942 MiB
Duration                                 : 2 h 4 min
Overall bit rate                         : 1 059 kb/s
Movie name                               : www.MovCr.cc
Encoded date                             : UTC 2018-11-17 05:43:04
Writing application                      : mkvmerge v26.0.0 ('In The Game') 64-bit
Writing library                          : libebml v1.3.6 + libmatroska v1.4.9

Video
ID                                       : 1
Format                                   : AVC
Format/Info                              : Advanced Video Codec
Format profile                           : [email protected]
Format settings                          : 2 Ref Frames
Format settings, CABAC                   : No
Format settings, RefFrames               : 2 frames
Format settings, GOP                     : M=1, N=25
Codec ID                                 : V_MPEG4/ISO/AVC
Duration                                 : 2 h 4 min
Bit rate                                 : 861 kb/s
Width                                    : 1 280 pixels
Height                                   : 544 pixels
Display aspect ratio                     : 2.35:1
Frame rate mode                          : Constant
Frame rate                               : 29.970 (30000/1001) FPS
Color space                              : YUV
Chroma subsampling                       : 4:2:0
Bit depth                                : 8 bits
Scan type                                : Progressive
Bits/(Pixel*Frame)                       : 0.041
Stream size                              : 766 MiB (81%)
Title                                    : www.MovCr.cc
Default                                  : Yes
Forced                                   : No

Audio
ID                                       : 2
Format                                   : AAC
Format/Info                              : Advanced Audio Codec
Format profile                           : LC
Codec ID                                 : A_AAC-2
Duration                                 : 2 h 4 min
Bit rate                                 : 192 kb/s
Channel(s)                               : 2 channels
Channel positions                        : Front: L R
Sampling rate                            : 48.0 kHz
Frame rate                               : 46.875 FPS (1024 SPF)
Compression mode                         : Lossy
Stream size                              : 173 MiB (18%)
Title                                    : www.MovCr.cc
Language                                 : English
Default                                  : Yes
Forced                                   : No



                       
Category:Movies > Pre-Releases
Lang:English  English
Total Size:942.13 MB
Info Hash:a860e7e0a7cba73da09ff692a6f516f87474d730
Added By:Kingmaker
Date Added:17-11-2018 05:53:03
Downloads:159

Ratings:Not Yet Rated (Log in to rate it)


Tracker:
udp://tracker.coppersurfer.tk:6969/announce


File List: 


Comments

No comments still posted

Top
Copyright 2018 DownloadHD -|- Page Generated In 2.019029 secs.
-|- RSS Feed -|- Feed Info